Loading...
Sign in to follow this  
Followers 0
ᎡᴇᴛʀᴏᏴᴏᴛ 2.0

Veeram (2016) English Proper WEB-DL [1080p - x265 - HEVC - AAC - 128kbps - 600MB] [ᎡᴛᏴᴛ]

2 posts in this topic

7185351612338ae0ec940911f137afc1.jpg

SCREENSHOTS

53846771d7bbfe99fa86cfe3e14dda5d.jpg

2f0f642b07e34c14ef4de142aa23e14a.jpg

e63eeb7521024daa8d7a20a1e4fdba2e.jpg

7246975b0938cf37bc1c071ed330494c.jpg

ea4f30686ad56bafd0dcf893d331e589.jpg

c8ce6e3bb6e76ef87e7636a4c89ef328.jpg

220e06477669bcc61d92a296ddaded89.jpg

MEDIA INFORMATION 

Format                                   : MPEG-4

Format profile                           : Base Media

File size                                : 637 MiB

Duration                                 : 1 h 45 min

Overall bit rate                         : 846 kb/s

Movie name                               : www.DVDWO.site

Writing application                      : Lavf58.29.100

 

Video

ID                                       : 1

Format                                   : HEVC

Format/Info                              : High Efficiency Video Coding

Format profile                           : Main

Format level                             : 4

Format tier                              : Main

Codec ID                                 : hev1

Duration                                 : 1 h 45 min

Bit rate                                 : 709 kb/s

Width                                    : 1 920 pixels

Height                                   : 1 080 pixels

Display aspect ratio                     : 16:9

Frame rate mode                          : Constant

Frame rate                               : 25.000 FPS

Color space                              : YUV

Chroma subsampling                       : 4:2:0

Bit depth                                : 8 bits

Scan type                                : Progressive

Bits/(Pixel*Frame)                       : 0.014

Stream size                              : 534 MiB (84%)

Title                                    : www.DVDWO.site

Writing library                          : x265 3.1_RC2+7-9c5c9cef2a86:[Linux][GCC 7.3.0][64 bit] 8bit

Color range                              : Limited

Codec_configuration_box                  : hvcC

 

Audio

ID                                       : 2

Format                                   : AAC LC

Format/Info                              : Advanced Audio Codec

Codec ID                                 : mp4a-40-2

Duration                                 : 1 h 45 min

Bit rate mode                            : Constant

Bit rate                                 : 128 kb/s

Channel(s)                               : 2 channels

Channel layout                           : L R

Sampling rate                            : 44.1 kHz

Frame rate                               : 43.066 FPS (1024 SPF)

Compression mode                         : Lossy

Stream size                              : 96.3 MiB (15%)

Title                                    : www.DVDWO.site

Default                                  : Yes

 

Alternate group                          : 1

torrborder.gif&key=1c2798a14b5fe6045b404

97b52c6550979e630892d40d74677492.png&key

www.DVDWO.site - Veeram (2016) English Proper WEB-DL [1080p - x265 - HEVC - AAC - 128kbps - 600MB] [ᎡᴛᏴᴛ].mp4.torrent

 

 

torrborder.gif&key=1c2798a14b5fe6045b404

B| Please Seed Back After Download B|

Share this post


Link to post
Share on other sites

Please sign in to comment

You will be able to leave a comment after signing in



Sign In Now
Sign in to follow this  
Followers 0