Sign in to follow this  
Followers 0
INTRPL

Lonappante Mammodheesa (2019) Malayalam [WEB-DL 1080p x264 DDP (640kbps 6CH 5.1) - INTRPL]

2 posts in this topic

Lonappante Mammodheesa (2019) Malayalam [WEB-DL 1080p x264 DDP (640kbps 6CH 5.1) - INTRPL]

 

MV5BODc2ZjFhYjUtZTRkZS00ZDc4LWJmY2MtNDZj

SCREENSHOTS

Click on image to view full size

fd477dbcff10842c2e31104374d5f8d8.md.jpg
cb610b958758401f73d5cb033b239292.md.jpg
078a01eaae23ebcfc04c0d3c19e41f0b.md.jpg
d744886cccf79ace49bda7dd1eb15106.md.jpg
fea900bfeb9deadf1cfd13aa41488314.md.jpg
a3057b7632e5ab63864b5602b7377ae7.md.jpg

torrborder.gif
 
 
 
torrborder.gif

 

 

 

 

Share this post


Link to post
Share on other sites

Complete name               : www.DVDWO.site - Lonappante Mammodheesa (2019) Malayalam [WEB-DL 1080p x264 DDP (640kbps 6CH 5.1) - INTRPL].mkv
Format                      : Matroska
Format version              : Version 4
File size                   : 5.76 GiB
Duration                    : 2 h 8 min
Overall bit rate            : 6 401 kb/s
Encoded date                : UTC 2019-10-06 10:21:55
Writing application         : mkvmerge v11.0.0 ('Alive') 64bit
Writing library             : libebml v1.3.4 + libmatroska v1.4.5

Video
ID                          : 1
Format                      : AVC
Format/Info                 : Advanced Video Codec
Format profile              : High@L4
Format settings             : CABAC / 2 Ref Frames
Format settings, CABAC      : Yes
Format settings, Reference  : 2 frames
Codec ID                    : V_MPEG4/ISO/AVC
Duration                    : 2 h 8 min
Bit rate                    : 6 015 kb/s
Width                       : 1 920 pixels
Height                      : 1 080 pixels
Display aspect ratio        : 16:9
Frame rate mode             : Constant
Frame rate                  : 25.000 FPS
Color space                 : YUV
Chroma subsampling          : 4:2:0
Bit depth                   : 8 bits
Scan type                   : Progressive
Bits/(Pixel*Frame)          : 0.116
Stream size                 : 5.41 GiB (94%)
Writing library             : x264 core 155 r2901 7d0ff22
Default                     : Yes
Forced                      : No
Color range                 : Limited
Color primaries             : BT.709
Transfer characteristics    : BT.709
Matrix coefficients         : BT.709

Audio
ID                          : 2
Format                      : E-AC-3
Format/Info                 : Enhanced AC-3
Commercial name             : Dolby Digital Plus
Codec ID                    : A_EAC3
Duration                    : 2 h 8 min
Bit rate mode               : Constant
Bit rate                    : 384 kb/s
Channel(s)                  : 6 channels
Channel layout              : L R C LFE Ls Rs
Sampling rate               : 48.0 kHz
Frame rate                  : 31.250 FPS (1536 SPF)
Compression mode            : Lossy
Stream size                 : 354 MiB (6%)
Language                    : English
Service kind                : Complete Main
Default                     : Yes
Forced                      : No

Share this post


Link to post
Share on other sites

Please sign in to comment

You will be able to leave a comment after signing in



Sign In Now
Sign in to follow this  
Followers 0