Sign in to follow this  
Followers 0
TM™

Thanneer Mathan Dinangal 2019 Malayalam 1080p 1.5GB DTS.™

1 post in this topic

Thanneer Mathan Dinangal 2019 Malayalam 1080p 1.5GB DTS.™

4aATTAlYdUa3HfHNfbPnpjOEvPU.jpg

MEDIA INFORMATION

Complete name                            : www.DVDWO.site.Thanneer.Mathan.Dinangal.2019.Malayalam.1080p.1.5GB.DTS.™.mkv
Format                                   : Matroska
Format version                           : Version 4
File size                                : 1.69 GiB
Duration                                 : 2 h 10 min
Overall bit rate                         : 1 858 kb/s
Encoded date                             : UTC 2019-10-08 03:55:13
Writing application                      : Lavf57.83.100
Writing library                          : Lavf57.83.100
ErrorDetectionType                       : Per level 1

Video
ID                                       : 1
Format                                   : HEVC
Format/Info                              : High Efficiency Video Coding
Format profile                           : Main@L4@Main
Codec ID                                 : V_MPEGH/ISO/HEVC
Duration                                 : 2 h 10 min
Bit rate                                 : 10.0 Mb/s
Width                                    : 1 920 pixels
Height                                   : 1 080 pixels
Display aspect ratio                     : 16:9
Frame rate mode                          : Variable
Frame rate                               : 30.000 FPS
Original frame rate                      : 23.976 (23976/1000) FPS
Color space                              : YUV
Chroma subsampling                       : 4:2:0
Bit depth                                : 8 bits
Bits/(Pixel*Frame)                       : 0.161
Stream size                              : 9.12 GiB
Writing library                          : Lavc57.107.100 hevc_nvenc
Language                                 : English
Default                                  : Yes
Forced                                   : No

Audio
ID                                       : 2
Format                                   : DTS
Format/Info                              : Digital Theater Systems
Codec ID                                 : A_DTS
Duration                                 : 2 h 10 min
Bit rate mode                            : Constant
Bit rate                                 : 384 kb/s
Channel(s)                               : 2 channels
Channel layout                           : L R
Sampling rate                            : 48.0 kHz
Frame rate                               : 93.750 FPS (512 SPF)
Bit depth                                : 16 bits
Compression mode                         : Lossy
Stream size                              : 296 MiB (17%)
Writing library                          : Lavc57.107.100 dca
Language                                 : English
Default                                  : Yes
Forced                                   : No

SCREENSHOTS

Click on image to view full size

073a141262edbd2d3800c50a483df855.md.jpg
7ee0d331dc73abf2cd47d4718bbb2df0.md.jpg
af10f6f96232135085b7b088726a899c.md.jpg
e5418087d27682a500e32fe19c6c5d53.md.jpg
b52a510a107e8b0dfd1826c5d5c476dc.md.jpg
99f00b686e62b78d04755a921d6e08ba.md.jpg

 

(Note:-USE THE VLC MEDIA PLAYER FOR THE BEST EXPERIENCE OF THE DTS FILE)

torrborder.gif

torrborder.gif

:clapping: Please Seed Back After Download   :clapping:

1 person likes this

Share this post


Link to post
Share on other sites

Please sign in to comment

You will be able to leave a comment after signing in



Sign In Now
Sign in to follow this  
Followers 0