Sign in to follow this  
Followers 0
INTRPL

Abhimanyu (1991) Malayalam [WEB-DL 720p HD DDP UNTOUCHED] - INTRPL

3 posts in this topic

Abhimanyu (1991) Malayalam [WEB-DL 720p HD DDP UNTOUCHED]

MV5BYzkwYTI5MTAtYzEwYi00Yjk3LWFiODctMzY2

 

SCREENSHOTS

Click on image to view full size

 

007cb3c63ab1aa584a6257d9c8bbdcfb.md.jpg
c4117a4dbf91cd730638c77067dc9431.md.jpg
c674175cba3d2326ac736d592155b859.md.jpg
c7b89a95422274a62a6bb09541fffa2f.md.jpg
a1dbad1e3f5ac4698d929e2e90abacf2.md.jpg

 

 

torrborder.gif

torrborder.gif

 

 

 

Share this post


Link to post
Share on other sites
Loading...

MEDIA INFO


Video
ID                          : 1
Format                      : AVC
Format/Info                 : Advanced Video Codec
Format profile              : High@L3.1
Format settings             : CABAC / 5 Ref Frames
Format settings, CABAC      : Yes
Format settings, Reference  : 5 frames
Codec ID                    : V_MPEG4/ISO/AVC
Duration                    : 2 h 19 min
Bit rate                    : 2 861 kb/s
Width                       : 1 280 pixels
Height                      : 720 pixels
Display aspect ratio        : 16:9
Frame rate mode             : Constant
Frame rate                  : 25.000 FPS
Color space                 : YUV
Chroma subsampling          : 4:2:0
Bit depth                   : 8 bits
Scan type                   : Progressive
Bits/(Pixel*Frame)          : 0.124
Stream size                 : 2.78 GiB (93%)
Default                     : Yes
Forced                      : No
Color range                 : Limited
Color primaries             : BT.709
Transfer characteristics    : BT.709
Matrix coefficients         : BT.709

Audio
ID                          : 2
Format                      : E-AC-3
Format/Info                 : Enhanced AC-3
Commercial name             : Dolby Digital Plus
Codec ID                    : A_EAC3
Duration                    : 2 h 19 min
Bit rate mode               : Constant
Bit rate                    : 224 kb/s
Channel(s)                  : 2 channels
Channel layout              : L R
Sampling rate               : 48.0 kHz
Frame rate                  : 31.250 FPS (1536 SPF)
Compression mode            : Lossy
Stream size                 : 223 MiB (7%)
Title                       : Malayalam
Language                    : Malayalam
Service kind                : Complete Main
Default                     : No
Forced                      : No

2 people like this

Share this post


Link to post
Share on other sites

Please sign in to comment

You will be able to leave a comment after signing in



Sign In Now
Sign in to follow this  
Followers 0