TM™

Administrators
  • Content count

    38
  • Joined

  • Last visited

  • Days Won

    3

TM™ last won the day on October 8

TM™ had the most liked content!

Community Reputation

30 Excellent

4 Followers

About TM™

  • Rank
    Advanced Member

Recent Profile Visitors

176 profile views
  1. Porinju Mariyam Jose 2019 Malayalam 1080p 2.5GB TSA SCREENSHOTS Click on image to view full size CLICK HERE TO DOWNLOAD Please Seed Back After Download
  2. Happy Husbands 2010 Malayalam 1080p 1.6GB DTS™ SCREENSHOTS Click on image to view full size CLICK HERE TO DOWNLOAD Please Seed Back After Download
  3. Dora And The Lost City Of Gold 2019 1080p 1.2GB DTS™ SCREENSHOTS Click on image to view full size CLICK HERE TO DOWNLOAD Please Seed Back After Download
  4. Bigil - Singappenney Video Song [Tamil] SCREENSHOTS Click on image to view full size CLICK HERE TO DOWNLOAD Please Seed Back After Download
  5. Bigil - Verithanam Video Song [Tamil] SCREENSHOTS Click on image to view full size CLICK HERE TO DOWNLOAD Please Seed Back After Download
  6. Jallikattu 2019 Malayalam 1080p 1.2GB DTS™ SCREENSHOTS Click on image to view full size MEDIA INFORMATION Complete name : www.DVDWO.site.Jallikattu.2019.Malayalam.1080p.DTS.™.mkv Format : Matroska Format version : Version 4 File size : 1.22 GiB Duration : 1 h 34 min Overall bit rate : 1 852 kb/s Movie name : www.DVDWO.site Encoded date : UTC 2019-11-03 08:24:22 Writing application : mkvmerge v8.3.0 ('Over the Horizon') 64bit Writing library : libebml v1.3.1 + libmatroska v1.4.2 Video ID : 1 Format : HEVC Format/Info : High Efficiency Video Coding Format profile : Main@L4@Main Codec ID : V_MPEGH/ISO/HEVC Duration : 1 h 34 min Bit rate : 1 466 kb/s Width : 1 920 pixels Height : 1 080 pixels Display aspect ratio : 16:9 Frame rate mode : Constant Frame rate : 24.000 FPS Color space : YUV Chroma subsampling : 4:2:0 Bit depth : 8 bits Bits/(Pixel*Frame) : 0.029 Stream size : 986 MiB (79%) Title : www.DVDWO.site Default : Yes Forced : No Audio ID : 2 Format : DTS Format/Info : Digital Theater Systems Codec ID : A_DTS Duration : 1 h 34 min Bit rate mode : Constant Bit rate : 384 kb/s Channel(s) : 2 channels Channel layout : L R Sampling rate : 48.0 kHz Frame rate : 93.750 FPS (512 SPF) Bit depth : 16 bits Compression mode : Lossy Stream size : 258 MiB (21%) Title : www.DVDWO.site Language : Malayalam Default : No Forced : No Text ID : 3 Format : UTF-8 Codec ID : S_TEXT/UTF8 Codec ID/Info : UTF-8 Plain Text Duration : 1 h 21 min Bit rate : 37 b/s Count of elements : 736 Stream size : 22.1 KiB (0%) Title : www.DVDWO.site Default : Yes Forced : No CLICK HERE TO DOWNLOAD Please Seed Back After Download
  7. B Tech 2018 Malayalam 1080p 3.5GB DTS™ SCREENSHOTS Click on image to view full size MEDIA INFORMATIONS Complete name : www.DVDWO.site.B.Tech.2018.Malayalam.1080p.3.5GB.DTS™.mkv Format : Matroska Format version : Version 4 File size : 3.45 GiB Duration : 2 h 17 min Overall bit rate : 3 591 kb/s Movie name : www.DVDWO.site Encoded date : UTC 2019-10-18 20:54:38 Writing application : mkvmerge v8.3.0 ('Over the Horizon') 64bit Writing library : libebml v1.3.1 + libmatroska v1.4.2 Video ID : 1 Format : AVC Format/Info : Advanced Video Codec Format profile : High@L4 Format settings : CABAC / 4 Ref Frames Format settings, CABAC : Yes Format settings, Reference frames : 4 frames Codec ID : V_MPEG4/ISO/AVC Duration : 2 h 17 min Bit rate : 2 200 kb/s Width : 1 920 pixels Height : 1 080 pixels Display aspect ratio : 16:9 Frame rate mode : Constant Frame rate : 25.000 FPS Color space : YUV Chroma subsampling : 4:2:0 Bit depth : 8 bits Scan type : Progressive Bits/(Pixel*Frame) : 0.042 Stream size : 2.09 GiB (61%) Title : www.DVDWO.site Writing library : x264 core 152 r2854 e9a5903 Encoding settings : cabac=1 / ref=3 / deblock=1:0:0 / analyse=0x3:0x113 / me=hex / subme=7 / psy=1 / psy_rd=1.00:0.00 / mixed_ref=1 / me_range=16 / chroma_me=1 / trellis=1 / 8x8dct=1 / cqm=0 / deadzone=21,11 / fast_pskip=1 / chroma_qp_offset=-2 / threads=34 / lookahead_threads=5 / sliced_threads=0 / nr=0 / decimate=1 / interlaced=0 / bluray_compat=0 / constrained_intra=0 / bframes=3 / b_pyramid=2 / b_adapt=1 / b_bias=0 / direct=1 / weightb=1 / open_gop=0 / weightp=2 / keyint=50 / keyint_min=26 / scenecut=0 / intra_refresh=0 / rc_lookahead=40 / rc=abr / mbtree=1 / bitrate=2200 / ratetol=1.0 / qcomp=0.60 / qpmin=0 / qpmax=69 / qpstep=4 / vbv_maxrate=2860 / vbv_bufsize=3300 / nal_hrd=none / filler=0 / ip_ratio=1.40 / aq=1:1.00 Default : Yes Forced : No Audio ID : 3 Format : DTS Format/Info : Digital Theater Systems Codec ID : A_DTS Duration : 2 h 17 min Bit rate mode : Constant Bit rate : 1 413 kb/s Channel(s) : 6 channels Channel layout : C L R Ls Rs LFE Sampling rate : 48.0 kHz Frame rate : 93.750 FPS (512 SPF) Bit depth : 24 bits Compression mode : Lossy Stream size : 1.36 GiB (39%) Title : www.DVDWO.site Default : Yes Forced : No CLICK HERE TO DOWNLOAD Please Seed Back After Download
  8. Brother's Day 2019 Malayalam HEVC 1080p 1.8GB DTS™ SCREENSHOTS Click on image to view full size MEDIA INFORMATIONS Complete name : www.DVDWO.site.Brothers.Day.2019.Malayalam.1080p.1.8GB.DTS™.mkv Format : Matroska Format version : Version 4 File size : 1.90 GiB Duration : 2 h 43 min Overall bit rate : 1 662 kb/s Movie name : www.DVDWO.site Encoded date : UTC 2019-10-17 04:58:57 Writing application : mkvmerge v8.3.0 ('Over the Horizon') 64bit Writing library : libebml v1.3.1 + libmatroska v1.4.2 Video ID : 1 Format : HEVC Format/Info : High Efficiency Video Coding Format profile : Main@L4@Main Codec ID : V_MPEGH/ISO/HEVC Duration : 2 h 43 min Bit rate : 1 276 kb/s Width : 1 920 pixels Height : 1 080 pixels Display aspect ratio : 16:9 Frame rate mode : Constant Frame rate : 24.000 FPS Color space : YUV Chroma subsampling : 4:2:0 Bit depth : 8 bits Bits/(Pixel*Frame) : 0.026 Stream size : 1.45 GiB (77%) Title : www.DVDWO.site Default : Yes Forced : No Audio ID : 2 Format : DTS Format/Info : Digital Theater Systems Codec ID : A_DTS Duration : 2 h 43 min Bit rate mode : Constant Bit rate : 384 kb/s Channel(s) : 2 channels Channel layout : L R Sampling rate : 48.0 kHz Frame rate : 93.750 FPS (512 SPF) Bit depth : 16 bits Compression mode : Lossy Stream size : 448 MiB (23%) Title : www.DVDWO.site Language : Malayalam Default : No Forced : No CLICK HERE TO DOWNLOAD Please Seed Back After Download
  9. Brother's Day 2019 Malayalam 700MB XVID MP3 SCREENSHOTS Click on image to view full size CLICK HERE TO DOWNLOAD Please Seed Back After Download
  10. Sundarakilladi 1998 HQ HDRip 1080p HEVC MP3 1.4GB SCREENSHOTS Click on image to view full size CLICK HERE TO DOWNLOAD Please Seed Back After Download
  11. Nani's Gang Leader 2019 Telugu 1080p HEVC 1.8GB DTS™ SCREENSHOTS Click on image to view full size MEDIA INFORMATION Complete name : www.DVDWO.site.Nani's.Gang.Leader.2019.Telugu.1080p.HEVC1.8GB.DTS™.mkv Format : Matroska Format version : Version 4 File size : 1.80 GiB Duration : 2 h 35 min Overall bit rate : 1 664 kb/s Movie name : www.DVDWO.site Encoded date : UTC 2019-10-12 23:57:03 Writing application : mkvmerge v8.3.0 ('Over the Horizon') 64bit Writing library : libebml v1.3.1 + libmatroska v1.4.2 Video ID : 1 Format : HEVC Format/Info : High Efficiency Video Coding Format profile : Main@L4@Main Codec ID : V_MPEGH/ISO/HEVC Duration : 2 h 35 min Bit rate : 1 277 kb/s Width : 1 920 pixels Height : 1 080 pixels Display aspect ratio : 16:9 Frame rate mode : Constant Frame rate : 24.000 FPS Color space : YUV Chroma subsampling : 4:2:0 Bit depth : 8 bits Bits/(Pixel*Frame) : 0.026 Stream size : 1.39 GiB (77%) Title : www.DVDWO.site Language : Telugu Default : Yes Forced : No Audio ID : 2 Format : DTS Format/Info : Digital Theater Systems Codec ID : A_DTS Duration : 2 h 35 min Bit rate mode : Constant Bit rate : 384 kb/s Channel(s) : 2 channels Channel layout : L R Sampling rate : 48.0 kHz Frame rate : 93.750 FPS (512 SPF) Bit depth : 16 bits Compression mode : Lossy Stream size : 426 MiB (23%) Title : www.DVDWO.site Language : Telugu Default : Yes Forced : No CLICK HERE TO DOWNLOAD Please Seed Back After Download
  12. Uyire 1998 Tamil Dubbed 480p 2.5GB Untouched™ SCREENSHOTS Click on image to view full size MEDIA INFORMATIONS Complete name : www.DVDWO.site.Uyire 1998 480p Untouched.mkv Format : Matroska Format version : Version 4 File size : 2.44 GiB Duration : 2 h 45 min Overall bit rate : 2 105 kb/s Encoded date : UTC 2019-10-09 06:43:36 Writing application : mkvmerge v32.0.0 ('Astral Progressions') 32-bit Writing library : libebml v1.3.7 + libmatroska v1.5.0 Video ID : 1 Format : AVC Format/Info : Advanced Video Codec Format profile : High@L3 Format settings : CABAC / 4 Ref Frames Format settings, CABAC : Yes Format settings, Reference frames : 4 frames Format settings, GOP : M=4, N=50 Codec ID : V_MPEG4/ISO/AVC Duration : 2 h 45 min Bit rate mode : Constant Bit rate : 2 000 kb/s Width : 720 pixels Height : 404 pixels Display aspect ratio : 16:9 Frame rate mode : Constant Frame rate : 25.000 FPS Color space : YUV Chroma subsampling : 4:2:0 Bit depth : 8 bits Scan type : Progressive Bits/(Pixel*Frame) : 0.275 Stream size : 2.29 GiB (94%) Default : Yes Forced : No Color range : Limited Audio ID : 2 Format : AAC LC Format/Info : Advanced Audio Codec Low Complexity Codec ID : A_AAC-2 Duration : 2 h 45 min Bit rate : 125 kb/s Channel(s) : 2 channels Channel layout : L R Sampling rate : 48.0 kHz Frame rate : 46.875 FPS (1024 SPF) Compression mode : Lossy Stream size : 149 MiB (6%) Title : Tamil Language : Tamil Default : No Forced : No Text ID : 3 Format : UTF-8 Codec ID : S_TEXT/UTF8 Codec ID/Info : UTF-8 Plain Text Duration : 2 h 42 min Bit rate : 49 b/s Count of elements : 1721 Stream size : 59.3 KiB (0%) Title : English [SDH] Language : English Default : No Forced : No CLICK HERE TO DOWNLOAD Please Seed Back After Download
  13. The Lion King [ 2019 English 1080p 12.8GB DTS 7.1 AC3]™ SCREENSHOTS Click on image to view full size MEDIA INFORMATION Complete name : www.DVDWO.site.The.Lion.King.2019.1080p.Bluray.DTS.7.1.™.mkv Format : Matroska Format version : Version 4 File size : 12.8 GiB Duration : 1 h 58 min Overall bit rate mode : Variable Overall bit rate : 15.6 Mb/s Movie name : www.DVDWO.site Encoded date : UTC 2019-10-10 19:54:51 Writing application : mkvmerge v8.2.0 ('World of Adventure') 32bit Writing library : libebml v1.3.1 + libmatroska v1.4.2 Video ID : 2 Format : AVC Format/Info : Advanced Video Codec Format profile : High@L4 Format settings : CABAC / 4 Ref Frames Format settings, CABAC : Yes Format settings, Reference : 4 frames Codec ID : V_MPEG4/ISO/AVC Duration : 1 h 58 min Bit rate : 10 000 kb/s Width : 1 920 pixels Height : 1 080 pixels Display aspect ratio : 16:9 Frame rate mode : Constant Frame rate : 23.976 (24000/1001) FPS Color space : YUV Chroma subsampling : 4:2:0 Bit depth : 8 bits Scan type : Progressive Bits/(Pixel*Frame) : 0.201 Stream size : 8.10 GiB (63%) Title : www.DVDWO.site Writing library : x264 core 157 r2935 545de2f Default : Yes Forced : No Color range : Limited Color primaries : BT.709 Transfer characteristics : BT.709 Matrix coefficients : BT.709 Audio #1 ID : 3 Format : AC-3 Format/Info : Audio Coding 3 Commercial name : Dolby Digital Codec ID : A_AC3 Duration : 1 h 58 min Bit rate mode : Constant Bit rate : 640 kb/s Channel(s) : 6 channels Channel layout : L R C LFE Ls Rs Sampling rate : 48.0 kHz Frame rate : 31.250 FPS (1536 SPF) Bit depth : 16 bits Compression mode : Lossy Delay relative to video : -5 ms Stream size : 541 MiB (4%) Title : www.DVDWO.site Language : English Service kind : Complete Main Default : Yes Forced : No Audio #2 ID : 4 Format : DTS XLL Format/Info : Digital Theater Systems Commercial name : DTS-HD Master Audio Codec ID : A_DTS Duration : 1 h 58 min Bit rate mode : Variable Bit rate : 5 091 kb/s Channel(s) : 8 channels Channel layout : C L R LFE Lb Rb Lss Rss Sampling rate : 48.0 kHz Frame rate : 93.750 FPS (512 SPF) Bit depth : 24 bits Compression mode : Lossless Delay relative to video : -5 ms Stream size : 4.21 GiB (33%) Title : www.DVDWO.site Language : English Default : No Forced : No CLICK HERE TO DOWNLOAD Please Seed Back After Download
  14. Gurkha [ 2019 Tamil HD AVC MKV DD5.1 8.7GB Untouched ] SCREENSHOTS Click on image to view full size Please Seed Back After Download
  15. Happy 2006 Malayalam Ddubbed 480p 1.6GB Untouched SCREENSHOTS Click on image to view full size (Note:-USE THE VLC MEDIA PLAYER FOR THE BEST EXPERIENCE OF THE DTS FILE) DIRECT LINK Please Seed Back After Download