Loading...

ᎡᴇᴛʀᴏᏴᴏᴛ 2.0

DVDWORLD TEAM
  • Content count

    70
  • Joined

  • Last visited

  • Days Won

    2

ᎡᴇᴛʀᴏᏴᴏᴛ 2.0 last won the day on October 23

ᎡᴇᴛʀᴏᏴᴏᴛ 2.0 had the most liked content!

Community Reputation

16 Good

2 Followers

About ᎡᴇᴛʀᴏᏴᴏᴛ 2.0

  • Rank
    Advanced Member
  1. ᏚᏟᎡᎬᎬNᏚᎻOᎢᏚ Clíck σn thє ímαgє tσ víєw ín full ѕízє www.DVDWO.site - Maheshinte Prathikaram (2016) BluRay [1080p - x265 - HEVC - AC3 - 256kbps - 800MB] [ᎡᴛᏴᴛ].mp4 www.DVDWO.site - Maheshinte Prathikaram (2016) BluRay [1080p - x265 - HEVC - AAC - 128kbps - 700MB] [ᎡᴛᏴᴛ].mp4
  2. ᏚᏟᎡᎬᎬNᏚᎻOᎢᏚ www.DVDWO.site - Namma Veettu Pillai (2019) Tamil Proper WEB-DL [1080p - x265 - HEVC - AAC - 1GB] [ᎡᴛᏴᴛ].mp4 English Subtitle:-
  3. SCREENSHOTS www.DVDWO.site - Karuppan (2017) Malayalam Dubbed HDTVRip [720p - x264 - AAC - 128kbps - 1.3GB].mp4 www.DVDWO.site - Karuppan (2017) Malayalam Dubbed HDTVRip [480p - x264 - AAC - 128kbps - 800MB].mp4
  4. SCREENSHOTS www.DVDWO.site - Porinju Mariyam Jose (2019) True WEB-DL [1080p - x265 - HEVC - AAC - 800MB] [ᎡᴛᏴᴛ].mp4 www.DVDWO.site - Porinju Mariyam Jose (2019) True WEB-DL [1080p - x265 - HEVC - DTS - 384kbps - 1.1GB] [ᎡᴛᏴᴛ].mp4
  5. SCREENSHOTS www.DVDWO.site - Petromax (2019) Tamil Proper WEB-DL [1080p - x265 - HEVC - AAC - 128kbps - 700MB] [ᎡᴛᏴᴛ].mp4 www.DVDWO.site - Petromax (2019) Tamil Proper WEB-DL [1080p - x265 - HEVC - AAC - 128kbps - 700MB] [ᎡᴛᏴᴛ].mp4 English Subtitle:- www.DVDWO.site - Petromax (2019) Tamil Proper WEB-DL - ESub.srt
  6. SCREENSHOTS www.DVDWO.site - Dilwale (2015) Hindi BRRip [1080p - x265 - HEVC - AAC - 650MB] [ᎡᴛᏴᴛ].mp4
  7. SCREENSHOTS www.DVDWO.site - Section 375 (2019) Hindi WEB-DL [720p - x264 - AAC - 500MB] [KR].mp4 English Subtitle:- www.DVDWO.site - Section 375 (2019) WEB-DL ESub.srt
  8. SCREENSHOTS www.DVDWO.site - Section 375 (2019) Hindi WEB-DL [1080p - x264 - AC3 - 1.7GB].mkv English Subtitle:- www.DVDWO.site - Section 375 (2019) WEB-DL ESub.srt
  9. The teenage son of a farmer from an underprivileged caste kills a rich, upper caste landlord. Will the farmer, a loving father and a pacifist by heart, be able to save his hot-blooded son is the rest of the story. SCREENSHOTS MEDIA INFORMATION Format : MPEG-4 Format profile : Base Media File size : 662 MiB Duration : 2 h 19 min Overall bit rate : 665 kb/s Movie name : www.dvdwo.site Writing application : Lavf58.29.100 Video ID : 1 Format : HEVC Format/Info : High Efficiency Video Coding Format profile : Main Format level : 4 Format tier : Main Codec ID : hev1 Duration : 2 h 19 min Bit rate : 594 kb/s Width : 1 920 pixels Height : 800 pixels Display aspect ratio : 2.40:1 Frame rate mode : Constant Frame rate : 25.000 FPS Color space : YUV Chroma subsampling : 4:2:0 Bit depth : 8 bits Scan type : Progressive Bits/(Pixel*Frame) : 0.015 Stream size : 592 MiB (89%) Title : www.dvdwo.site Writing library : x265 3.1_RC2+7-9c5c9cef2a86:[Linux][GCC 7.4.0][64 bit] 8bit Color range : Limited Codec_configuration_box : hvcC Audio ID : 2 Format : AAC LC Format/Info : Advanced Audio Codec Codec ID : mp4a-40-2 Duration : 2 h 19 min Bit rate mode : Constant Bit rate : 64.0 kb/s Channel(s) : 1 channel Channel layout : C Sampling rate : 44.1 kHz Frame rate : 43.066 FPS (1024 SPF) Compression mode : Lossy Stream size : 63.7 MiB (10%) Title : www.dvdwo.site Language : Tamil Default : Yes Alternate group : 1 www.DVDWO.site - Asuran (2019) Tamil Proper WEB-DL [1080p - x265 - HEVC - AAC - 650MB] [ᎡᴛᏴᴛ].mp4 www.DVDWO.site - Asuran (2019) Tamil Proper WEB-DL [1080p - x265 - HEVC - AAC - 650MB] [ᎡᴛᏴᴛ].mp4 [UPINDIA DIRECT LINK] English Subtitle:- www.DVDWO.site - Asuran (2019) Tamil Proper WEB-DL - ESub.srt
  10. SCREENSHOTS MEDIA INFORMATION Format : MPEG-4 Format profile : Base Media File size : 637 MiB Duration : 1 h 45 min Overall bit rate : 846 kb/s Movie name : www.DVDWO.site Writing application : Lavf58.29.100 Video ID : 1 Format : HEVC Format/Info : High Efficiency Video Coding Format profile : Main Format level : 4 Format tier : Main Codec ID : hev1 Duration : 1 h 45 min Bit rate : 709 kb/s Width : 1 920 pixels Height : 1 080 pixels Display aspect ratio : 16:9 Frame rate mode : Constant Frame rate : 25.000 FPS Color space : YUV Chroma subsampling : 4:2:0 Bit depth : 8 bits Scan type : Progressive Bits/(Pixel*Frame) : 0.014 Stream size : 534 MiB (84%) Title : www.DVDWO.site Writing library : x265 3.1_RC2+7-9c5c9cef2a86:[Linux][GCC 7.3.0][64 bit] 8bit Color range : Limited Codec_configuration_box : hvcC Audio ID : 2 Format : AAC LC Format/Info : Advanced Audio Codec Codec ID : mp4a-40-2 Duration : 1 h 45 min Bit rate mode : Constant Bit rate : 128 kb/s Channel(s) : 2 channels Channel layout : L R Sampling rate : 44.1 kHz Frame rate : 43.066 FPS (1024 SPF) Compression mode : Lossy Stream size : 96.3 MiB (15%) Title : www.DVDWO.site Default : Yes Alternate group : www.DVDWO.site - Veeram (2016) English Proper WEB-DL [1080p - x265 - HEVC - AAC - 128kbps - 600MB] [ᎡᴛᏴᴛ].mp4.torrent Please Seedback After Download
  11. SCREENSHOTS MEDIA INFORMATION Format : MPEG-4 Format profile : Base Media File size : 637 MiB Duration : 1 h 45 min Overall bit rate : 846 kb/s Movie name : www.DVDWO.site Writing application : Lavf58.29.100 Video ID : 1 Format : HEVC Format/Info : High Efficiency Video Coding Format profile : Main Format level : 4 Format tier : Main Codec ID : hev1 Duration : 1 h 45 min Bit rate : 709 kb/s Width : 1 920 pixels Height : 1 080 pixels Display aspect ratio : 16:9 Frame rate mode : Constant Frame rate : 25.000 FPS Color space : YUV Chroma subsampling : 4:2:0 Bit depth : 8 bits Scan type : Progressive Bits/(Pixel*Frame) : 0.014 Stream size : 534 MiB (84%) Title : www.DVDWO.site Writing library : x265 3.1_RC2+7-9c5c9cef2a86:[Linux][GCC 7.3.0][64 bit] 8bit Color range : Limited Codec_configuration_box : hvcC Audio ID : 2 Format : AAC LC Format/Info : Advanced Audio Codec Codec ID : mp4a-40-2 Duration : 1 h 45 min Bit rate mode : Constant Bit rate : 128 kb/s Channel(s) : 2 channels Channel layout : L R Sampling rate : 44.1 kHz Frame rate : 43.066 FPS (1024 SPF) Compression mode : Lossy Stream size : 96.3 MiB (15%) Title : www.DVDWO.site Default : Yes Alternate group : 1 www.DVDWO.site - Veeram (2016) English Proper WEB-DL [1080p - x265 - HEVC - AAC - 128kbps - 600MB] [ᎡᴛᏴᴛ].mp4.torrent Please Seed Back After Download