Loading...

Leaderboard


Popular Content

Showing most liked content since 10/18/2019 in all areas

  1. 7 likes
    Saaho (2019) Malayalam WEB-DL 1080p x265 5.1 Audio 900 MB-SPS SCREENSHOTS Click on image to view full size www.dvdwo.site Saaho (2019) Malayalam WEB-DL 1080p x265 5.1 Audio 900 MB-SPS.mp4.torrent Please Seed Back After Download FASTEST Downloading LINK DIRECT DOWNLOAD IF YOU LIKE THE CONTENT PLZ DO LIKE US AS A TOKEN OF APPRECIATION
  2. 6 likes
    Ittymani Made In China (2019) MALAYALAM WEB-DL 1080p x265 5.1 Audio 950 MB-SPS SCREENSHOTS Click on image to view full size FASTEST DOWNLOADING LINK DIRECT DOWNLOAD
  3. 4 likes
    Ganagandharvan Malayalam (2019) Malayalam Proper TRUE WEB-Rip - [True HDRip - 720p - x264 - AAC - 1.4GB] - [True HDRip - 700MB - x264 - 1CD - MP3] - [True HDRip - 700MB - XviD - MP3] - [True HDRip - 400MB - x264 - MP3 Kalasadan Ullas is an aspiring singer living an ordinary life, whose world gets turned upside down when he is dragged into a police case involving three women. SCREENSHOTS Click on image to view full size FASTEST Downloading LINK Ganagandharvan Malayalam (2019) Malayalam Proper TRUE WEB-rip720p AAC 1.4GB DIRECT DOWNLOAD FASTEST Downloading LINK Ganagandharvan Malayalam (2019) Malayalam Proper TRUE WEB-ripX264 400MB -Mp3 DIRECT DOWNLOAD FASTEST Downloading LINK Ganagandharvan (2019)[Proper Malayalam - HQ HDRip - XviD - MP3 - 500MB] DIRECT DOWNLOAD FASTEST Downloading LINK Ganagandharvan Malayalam (2019) Malayalam Proper TRUE WEB-RipX264 700MB -Mp3 DIRECT DOWNLOAD
  4. 4 likes
    Margamkali (2019) Malayalam DVDRip + ESubs - [DVDRip - x264 - AAC - 700MB Margamkali is a 2019 Indian Malayalam language romantic comedy film directed by Sreejith Vijayan, scripted by the Malayalm film comedian Shashankan Mayyanad. The film is produced by Listin Stephen and Alwin Antony for the banner of Ananya Films. Story line Unable to forget his first love, Sachi decides never to love anyone in his life. That's when Oormila enters his life. Will he reconsider his decision SCREENSHOTS Click on image to view full size www.DVDWO.site-Margamkali (2019) Malayalam DVDRip + ESubs - [DVDRip - x264 - AAC - 700MB.mkv (1).torrent Please Seed Back After Download
  5. 4 likes
    Jallikattu (2019) MalayalamTrue WEB-DL + Soft ESub - [720p - True HDRip - x264 - ] -[True HDRip - 800MB - x264 - 1CD - MP3] -[True HDRip - 400MB - x264 - MP3] Set in a remote village in the hill ranges of Kerala, Jallikattu unfolds during the course of a day and night. The events are set off when a butcher’s buffalo breaks free and runs amok. SCREENSHOTS Click on image to view full www.dvdwo.site Jallikattu x264 Untouched DDP 5.1 4.7GB .mkv.torrent Please Seed Back After Download www.DVDWO.site-Jallikattu (2019) Malayalam Proper TRUE HDRip -x264 - AAC - 500MB ESubs.mkv.torrent Please Seed Back After Download www.DVDWO.site-Jallikattu (2019) Malayalam [Proper TRUE HDRip -x264 - AAC - 700MB ESubs].mkv.torrent Please Seed Back After Download www.DVDWO.site-Jallikattu (2019) Malayalam [Proper TRUE HDRip -x264 - AAC - 1.4GB ESubs].mkv.torrent Please Seed Back After Download
  6. 4 likes
    Who (2018) Malayalam [ Proper WEB-DL X264 AAC 800MB E-Subs, X264 AAC 400MB, 720p X264 AAC 1.4GB, 1080p X264 AAC 2GB AGA, X265 HEVC AAC 400MB AGA] In Mercada, a mysterious valley that is spread across 200 km, strange things happen every year on the Christmas day. These mysterious events need explanation for the logical and reasoning mind. So, A young girl, a dream interpreter, a criminal psychologist and a team of two Police officers try to solve the puzzles. SCREENSHOTS Click on image to view full size www.DVDWO.site - WHO (2018) Malayalam [WEB-DL 1080p x264 AAC 7.8GB E-Subs].mkv.torrent www.DVDWO.site - Who (2018) Malayalam [HDRip 550MB AAC E-Subs].mkv.torrent www.DVDWO.site - Who (2018) Malayalam [HDRip x264 AAC 550MB] 550MB DIRECT www.DVDWO.site - WHO (2018) Malayalam [WEB-DL x264 AAC 600MB E-Subs] ().mkv.torrent FASTEST DOWNLOADING LINK www.DVDWO.site - Who (2018) Malayalam [HDRip x264 AAC 600MB E-Subs] DIRECT DOWNLOAD www.DVDWO.site - Who (2018) Malayalam [HDRip 700MB AAC E-Subs].mkv.torrent FASTEST DOWNLOADING LINK www.DVDWO.site - Who (2018) Malayalam [HDRip x264 AAC 700MB E-Subs] DIRECT DOWNLOAD FASTEST DOWNLOADING LINK Who (2018) Malayalam [WEB-DL 720p X264 AAC 1.4GB E-Subs] DIRECT DOWNLOAD FASTEST DOWNLOADING LINK Who (2018) Malayalam [ Proper WEB-DL 1080p X264 MP3 Esub 1.7GB AGA] DIRECT DOWNLOAD Please Seed Back After Download English Subtitles : www.DVDWO.site - WHO (2018) Malayalam ] Original Version Eng Sub.srt
  7. 4 likes
    Vikramadityan (2013) Malayalam WEB-DL [1080p x264 DDP 5.1 6.5GB E-Subs - INTRPL] SCREENSHOTS Click on image to view full size www.DVDWO.site - Vikramadityan (2013) Malayalam WEB-DL [1080p x264 DDP 5.1 6.5GB E-Subs - INTRPL].mkv.torrent Please Seed Back After Download https://verystream.com/stream/AearUzHcs3Z/www.DVDWO.site_-_Vikramadityan_(2013)_Malayalam_WEB-DL_[1080p_x264_DDP_5.1_6.5GB_E-Subs_-_INTRPL].mkv https://1fichier.com/?shw57jjj7zx1t2heuubb https://uptobox.com/3m4k4fpgjvkd
  8. 3 likes
    Porinju Mariyam Jose (2019) Malayalam True WEB-DL - [720p - True HDRip - x264 - 1.4GB] - [True HDRip - 700MB - x264 - 1CD - MP3] - [True HDRip - 400MB - x264 - MP3] SCREENSHOTS Click on image to view full size Porinju.Mariam.Jose 2019.Malayalam AAC-720p 1.4GB DIRECT DOWNLOAD Porinju Mariyam Jose (2019) Proper WEB-DL -True HDRip - x264 650MB DIRECT DOWNLOAD Porinju Mariyam Jose (2019) Proper WEB-DL -True HDRip - x264 400MB DIRECT DOWNLOAD
  9. 3 likes
    Pattabhiraman (2019) Malayalam Original Proper HQ DVD + Soft ESub - [720p - True DVDRip - x264 -1.4GB] - [True DVDRip - 700MB - x264 - 1CD - MP3] - [True DVDRip - 400MB - x264 - MP3 Pattabhiraman It is the story of a warrior against food adulteration and challenges he faces because of that SCREENSHOTS Click on image to view full size www.DVDWO-Pattabhiraman (2019) Malayalam Original HQ DVD 360p 400MBv1.mp4.torrent Please Seed Back After Download www.DVDWO-Pattabhiraman (2019) Malayalam Original HQ DVD-Rip 720p AAC 5.1 1.1GB -ESub.mkv.torrent Please Seed Back After Download
  10. 3 likes
    WHO (2018) MALAYALAM WEB-DL 1080p x265 HEVC MP3 950 MB-SPS In Mercada, a mysterious valley that is spread across 200 km, strange things happen every year on the Christmas day. These mysterious events need explanation for the logical and reasoning mind. So, A young girl, a dream interpreter, a criminal psychologist and a team of two Police officers try to solve the puzzles. SCREENSHOTS Click on image to view full size IF YOU LIKE THE CONTENT PLZ DO LIKE US AS A TOKEN OF APPRECIATION www_DVDWO_site_l - WHO (2018) Malayalam [WEB-DL 1080p x265 HEVC SPS.torrent Please Seed Back After Download
  11. 3 likes
    Ghajini 2005 Tamil 1080p HEVC DTS™ SCREENSHOTS Click on image to view full size (Note:-USE THE VLC MEDIA PLAYER FOR THE BEST EXPERIENCE OF THE DTS FILE) DOWNLOAD Please Seed Back After Download
  12. 2 likes
    Joker English (2019) WEB-DL 1080p x265-HEVC AAC HC-Kor Sub 930 MB-SPS SCREENSHOTS Click on image to view full size DIRECT LINK : http://ptlinks.in/Wo84yzo
  13. 2 likes
    Petromax Tamil (2019) WEB-DL 1080p x265-HEVC AAC Esub 900 MB-SPS SCREENSHOTS Click on image to view full size DIRECT LINK : http://ptlinks.in/46jR
  14. 2 likes
    Asuran Tamil (2019) WEB-DL 1080p x265-HEVC AAC E-Sub 900 MB-SPS The son of a farmer from an underprivileged caste kills a rich, upper caste landlord. Will the farmer, a loving father and a pacifist by heart, be able to save his hot-blooded son is the rest of the story. SCREENSHOTS Click on image to view full size IF YOU LIKE THE CONTENT PLZ DO LIKE US AS A TOKEN OF APPRECIATION DIRECT LINK : http://ptlinks.in/tq3YIbEz www.DVDWO.site Asuran Tamil (2019) WEB-DL 1080p x265-HEVC AAC E-Sub 900 MB-SPS.mkv.torrent
  15. 2 likes
  16. 2 likes
  17. 2 likes
    Veeram (2017) English [ proper WEB DL Esub X264 AAC 800MB, 1080p X265 HEVC 2GB, 720p X264 AAC 1.4GB, X265 HEVC 480p 500MB]-UNCUT VERSION UNCENSORED SCREENSHOTS Click on image to view full size www.DVDWO.site.Veeram.2016.[English.Dubbed].1080p.mkv.torrent Please Seed Back After Download www.DVDWO.site-Veeram (2017) English proper WEB DL X264[True HDRip - 700MB-Esub.mkv.torrent
  18. 2 likes
    Dora And The Lost City Of Gold (2019) English [ HQ HDRip 720p X265 HEVC AAC 750MB KR] SCREENSHOTS Click on the image to view in full size DIRECT DOWNLOAD
  19. 2 likes
    Jallikattu 2019 Malayalam 1080p 1.2GB DTS™ SCREENSHOTS Click on image to view full size MEDIA INFORMATION Complete name : www.DVDWO.site.Jallikattu.2019.Malayalam.1080p.DTS.™.mkv Format : Matroska Format version : Version 4 File size : 1.22 GiB Duration : 1 h 34 min Overall bit rate : 1 852 kb/s Movie name : www.DVDWO.site Encoded date : UTC 2019-11-03 08:24:22 Writing application : mkvmerge v8.3.0 ('Over the Horizon') 64bit Writing library : libebml v1.3.1 + libmatroska v1.4.2 Video ID : 1 Format : HEVC Format/Info : High Efficiency Video Coding Format profile : Main@L4@Main Codec ID : V_MPEGH/ISO/HEVC Duration : 1 h 34 min Bit rate : 1 466 kb/s Width : 1 920 pixels Height : 1 080 pixels Display aspect ratio : 16:9 Frame rate mode : Constant Frame rate : 24.000 FPS Color space : YUV Chroma subsampling : 4:2:0 Bit depth : 8 bits Bits/(Pixel*Frame) : 0.029 Stream size : 986 MiB (79%) Title : www.DVDWO.site Default : Yes Forced : No Audio ID : 2 Format : DTS Format/Info : Digital Theater Systems Codec ID : A_DTS Duration : 1 h 34 min Bit rate mode : Constant Bit rate : 384 kb/s Channel(s) : 2 channels Channel layout : L R Sampling rate : 48.0 kHz Frame rate : 93.750 FPS (512 SPF) Bit depth : 16 bits Compression mode : Lossy Stream size : 258 MiB (21%) Title : www.DVDWO.site Language : Malayalam Default : No Forced : No Text ID : 3 Format : UTF-8 Codec ID : S_TEXT/UTF8 Codec ID/Info : UTF-8 Plain Text Duration : 1 h 21 min Bit rate : 37 b/s Count of elements : 736 Stream size : 22.1 KiB (0%) Title : www.DVDWO.site Default : Yes Forced : No CLICK HERE TO DOWNLOAD Please Seed Back After Download
  20. 2 likes
    Pailwaan (2019) Malayalam Original versionProper WEB DL Esub [X264 AC3 1080p UNTOCHED 8.7GB][X264 AAC 700MB, X264 AAC 400MB], [720p X264 AAC 1.4GB] SCREENSHOTS Click on the image to view in full size Pailwaan (2019) Malayalam Original version Proper WEB DL Esub X264 AC3 1080p UNTOCHED 8.7GB www_Dvdwo_site_Pailwaan_Malayalam.mkv.torrent Pailwaan (2019) Malayalam Original version Proper WEB DL Esub X264 AAC 600MB DIRECT DOWNLOAD Pailwaan (2019) Malayalam Original version Proper WEB DL Esub X264 AAC 800MB DIRECT DOWNLOAD Pailwaan (2019) Malayalam Original version Proper WEB DL Esub X264 AAC 700MB DIRECT DOWNLOAD Pailwaan (2019) Malayalam Original version Proper WEB DL 720p X264 AAC Esub 1.5GB DIRECT DOWNLOAD Please Seed Back After Download
  21. 2 likes
    Premasoothram ( 2018) Malayalam [WEB-DL - 1080p - AVC - UNTOUCHED - (DD+5.1 - 640Kbps) - 10GB - ESub] [720p - True HDRip - x264 - (DD+5.1 - 192Kbps) - 1.4GB] - [720p - True HDRip - x265 - HEVC - (DD+5.1 - ] - [True HDRip - 700MB - x264 - 1CD - MP3] - [True HDRip - XviD - 700MB - MP3] - [True HDRip - 400MB - x264 - MP3] SCREENSHOTS Click on image to view full size Premasoothram (2018) MalayalamWEB-DL - 1080p - AVC - UNTOUCHED - (DD+5.1 - 640Kbps) - 10GB - ESub Www.dvdwo.site Premasoothram [1080p] Untouched 10GB.mkv.torrent Please Seed Back After Download Premasoothram (2018) MalayalamWEB-DL - 480p - AVC - 500MB www.dvdwo.site Premasoothram WEB DL AVC 480p 500MB x264.mp4.torrent Premasoothram (2018) Malayalam [ HQ HDRip X264 AAC 700MB].mkv.torrent www.Dvdwo.site-Premasoothram (2018) Malayalam [ HQ HDRip X264 AAC 700MB].mkv.torrent Premasoothram (2018) Malayalam [ HQ HDRip X264 AAC 720p 1.2GB.mkv.torrent www.Dvdwo.site-Premasoothram (2018) Malayalam [ HQ HDRip X264 AAC 720p 1.2GB.mkv.torrent Premasoothram (2018) Malayalam [ HQ HDRip X264 AAC 1080p 1.8 GB.mp4.torrent www.Dvdwo.site-Premasoothram (2018) Malayalam [ HQ HDRip X264 AAC 1080p 1.8 GB.mp4.torrent Premasoothram (2018) Malayalam [ HQ HDRip X266 AAC 720p 500MB MP3 Audio AGA www.Dvdwo.site-Premasoothram (2018) Malayalam [ HQ HDRip X265 720p HEVC 500MB] AGA.mp4.torrent DIRECT DOWNLOAD English Subtitles : Www.Dvdwo.site Premasoothram Orginal WEB-DL Esub.Srt
  22. 2 likes
    Ittymaani : Made in China (2019) Malayalam [HDRip 720 x265 HEVC 5.1 Audio 500MB] AGA SCREENSHOTS Click on image to view full size FASTEST DOWNLOADING LINK DIRECT DOWNLOAD
  23. 2 likes
    SCREENSHOTS Click On The Image To View In Full Size www.DVDWO.site - Nerkonda Paarvai (2019) Tamil [Proper WEB-DL 2K - x265 HEVC - AAC 5.1 ESubs ] [ᎡᴛᏴᴛ].mkv English Subtitle :- www.DVDWO.site - Nerkonda Paarvai (2019) Tamil Proper WEB-DL - ESub.srt
  24. 2 likes
    THUPPAKKI (2012) TAMIL Blu-ray 1080P x265 5.1 AUD 1.5 GB -SPS SCREENSHOTS Click on image to view full size Direct Download
  25. 2 likes
    SCREENSHOTS Click On The Image To View Full Size Brother's Day (2019) Malayalam Proper HDRip [1080p - x265 - HEVC - AAC - 5.1 - 700MB ] [ᎡᴛᏴᴛ].mkv English Subtitle:- www.DVDWO.site - Brother's Day (2019) Malayalam Proper HDRip - ESub.srt
  26. 2 likes
    Hyper (2016) Tamil [WEB-DL 1080p x264 AAC 5.1 INTRPL] SCREENSHOTS Click on image to view full size www.DVDWO.site - Hyper (2016) Tamil [WEB-DL 1080p x264 AAC 5.1 INTRPL].mkv.torrent Please Seed Back After Download
  27. 2 likes
    Saaho (2019) Malayalam [WEB-DL-5.1 AUDIO 1080p-X264 2GB]Esub SCREENSHOTS Click on image to view full size DIRECT DOWNLOAD
  28. 2 likes
    BROTHER'S DAY 2019 MALAYALAM WEB-DL 1080p x265 5.1 Audio 900 MB-SPS SCREENSHOTS Click on image to view full size DIRECT LINK: https://ckk.ai/CTWbm IF YOU LIKE THE CONTENT PLZ DO LIKE US AS A TOKEN OF APPRECIATION
  29. 2 likes
    KGF: CHAPTER 1 MALAYALAM (2018) WEB-DL 1080P X265 5.1 AUD 1.4GB -SPS SCREENSHOTS Click on image to view full size Direct Download Please Seed Back After Download
  30. 2 likes
    Seniors (2011) Malayalam Proper WEB-DL 720p X265 HEVC AAC 500MB [TSA] SCREENSHOTS. https://upindia.mobi/365019/y57Y8Z7
  31. 1 like
    Guppy (2016) Malayalam Proper WEB-DL 720p X264 AC3 5.1 1.6GB, 720p X265 HEVC AAC 900MB KR, 1080p X264 AC3 5.1 2GB,480p X265 HEVC 500MB] FASTEST DOWNLOADING LINK Guppy (2016) Malayalam Proper WEB-DL 720p X265 HEVC AAC 900MB KR DIRECT DOWNLOAD FASTEST DOWNLOADING LINK Guppy (2016) Malayalam Proper WEB-DL 720p X264 AC3 5.1 1.6GB AGA DIRECT DOWNLOAD FASTEST DOWNLOADING LINK Guppy (2016) Malayalam Proper WEB-DL 1080p X264 AC3 5.1 2GB KR DIRECT DOWNLOAD
  32. 1 like
  33. 1 like
    Aruvam (2019) Tamil WEBDL 1080p x265 Hevc AAC Esub 1.8GB [KR] SCREENSHOTS Click on image to view full size FASTEST Downloading LINK Aruvam(2019) Tamil WEBDL x265 1080p AAC 1.8GB ESubs DIRECT DOWNLOAD
  34. 1 like
    Veeram (2016) English [Proper WEB DL 1080p X265 HEVC DTS Esub 1.6GB TM] SCREENSHOTS Click on the image to view in full size www.DVDWO.site.Veeram.2016.Malayalam.[English.Dubbed].1080p.DTS™.mkv.torrent Please Seed Back After Download
  35. 1 like
    Veeram (2017) English [ proper WEB DL Esub X264 AAC 800MB, 1080p X265 HEVC 2GB, 720p X264 AAC 1.4GB, X265 HEVC 480p 500MB]-UNCUT VERSION UNCENSORED SCREENSHOTS Click on image to view full size www.DVDWO.site.Veeram.2016.[English.Dubbed].1080p.mkv.torrent Please Seed Back After Download www.DVDWO.site-Veeram (2017) English proper WEB DL X264[True HDRip - 700MB-Esub.mkv.torrent www.DVDWO.site-Veeram (2016) English [Proper WEB DL X264 AAC Esub 400MB].mkv.torrent www.DVDWO.site-Veeram (2016) English [Proper WEB DL 720p X264 AAC 1.4GB Esub ].mkv.torrent
  36. 1 like
  37. 1 like
  38. 1 like
    ASURAN (2019) Tamil HD Rip x265 HEVC 720p AAC 500MB-ESubs. The son of a farmer from an underprivileged caste kills a rich, upper caste landlord. Will the farmer, a loving father and a pacifist by heart, be able to save his hot-blooded son is the rest of the story. SCREENSHOTS Click on image to view full size www.DVDWO.site-ASURAN (2019) Tamil HD Rip x265 HEVC 720p AAC 500MB-ESubs..mkv.torrent Please Seed Back After Download
  39. 1 like
    Dora And The Lost City Of Gold 2019 1080p 1.2GB DTS™ SCREENSHOTS Click on image to view full size CLICK HERE TO DOWNLOAD Please Seed Back After Download
  40. 1 like
    SCREENSHOTS www.DVDWO.site - K.G.F : Chapter 1 (2018) Malayalam Proper WEB-DL [1080p - x265 - HEVC - AAC][ᎡᴛᏴᴛ].mp4
  41. 1 like
  42. 1 like
  43. 1 like
    Oththa Seruppu Size 7 (2019) Tamil WEB-DL 1080p x265 HEVC AAC audio Esub - 850MB-SPS SCREENSHOTS Click on image to view full size IF YOU LIKE THE CONTENT PLZ DO LIKE US AS A TOKEN OF APPRECIATION WWW.DVDWO.site-Oththa Seruppu Size 7 (2019) Tamil WEB-DL 1080p x265 HEVC AAC audio Esub - 850MB-SPS.mkv.torrent Please Seed Back After Download
  44. 1 like
    K.G.F: Chapter 1 (2018) Malayalam [ HQ HDRip 720p X265 HEVC AAC 900MB, X265 HEVC 480p AAC 600MB [KR] SCREENSHOTS Click on the image to view in full size KGF Chapter 1 (2018) Malayalam [ HQ HDRip 480p X265 HEVC AAC 600MB KR] DIRECT DOWNLOAD KGF Chapter 1 (2018) Malayalam [ HQ HDRip 720p X265 HEVC AAC 900MB KR] DIRECT DOWNLOAD
  45. 1 like
  46. 1 like
    Pailwaan (2019) Malayalam WEB-DL 1080p x265 MP3 950MB-SPS SCREENSHOTS Click on the image to view in full size FASTEST DOWNLOADING LINK DIRECT DOWNLOAD
  47. 1 like
  48. 1 like
    Ittymaani Made In China Streaming On #Amazon_Prime_Videos From October 25th Kaappan Tamil Movie Streaming On #Amazon_Prime_Videos From 27th October Maarconi Mathaayi Malayalam Movie World Television Premiere On October 27th Sunday 5pm Asuran Tamil Movie Streaming On #Amazon_Prime_Video From 8th November Chhichhore Hindi Movie Streaming On #Hotstar From November 1st Section 375 Hindi Moving Streaming On #Amazon_Prime_Video From November 8th Prassthanam Hindi Movie Streaming On #Amazon_Prime_Video From 15th November
  49. 1 like
    Oru Kuprasidha Payyan 2018 Malayalam [ Proper WEB DL 720p X265 HEVC.800MB SCREENSHOTS Click on the image to view in full size www.DVDWO.site-Oru Kuprasidha Payyan 2018 Malayalam [ Proper WEB DL 720p X265 HEVC.800MB..mp4.torrent Please Seed Back After Download
  50. 1 like
    Brother's Day 2019 Malayalam HEVC 1080p 1.8GB DTS™ SCREENSHOTS Click on image to view full size MEDIA INFORMATIONS Complete name : www.DVDWO.site.Brothers.Day.2019.Malayalam.1080p.1.8GB.DTS™.mkv Format : Matroska Format version : Version 4 File size : 1.90 GiB Duration : 2 h 43 min Overall bit rate : 1 662 kb/s Movie name : www.DVDWO.site Encoded date : UTC 2019-10-17 04:58:57 Writing application : mkvmerge v8.3.0 ('Over the Horizon') 64bit Writing library : libebml v1.3.1 + libmatroska v1.4.2 Video ID : 1 Format : HEVC Format/Info : High Efficiency Video Coding Format profile : Main@L4@Main Codec ID : V_MPEGH/ISO/HEVC Duration : 2 h 43 min Bit rate : 1 276 kb/s Width : 1 920 pixels Height : 1 080 pixels Display aspect ratio : 16:9 Frame rate mode : Constant Frame rate : 24.000 FPS Color space : YUV Chroma subsampling : 4:2:0 Bit depth : 8 bits Bits/(Pixel*Frame) : 0.026 Stream size : 1.45 GiB (77%) Title : www.DVDWO.site Default : Yes Forced : No Audio ID : 2 Format : DTS Format/Info : Digital Theater Systems Codec ID : A_DTS Duration : 2 h 43 min Bit rate mode : Constant Bit rate : 384 kb/s Channel(s) : 2 channels Channel layout : L R Sampling rate : 48.0 kHz Frame rate : 93.750 FPS (512 SPF) Bit depth : 16 bits Compression mode : Lossy Stream size : 448 MiB (23%) Title : www.DVDWO.site Language : Malayalam Default : No Forced : No CLICK HERE TO DOWNLOAD Please Seed Back After Download